street outlaws blindspot Lethal weapon izombie westworld Young Sheldon flash fgt big bang theory death wish the expanse ncis fear the walking dead agents of shield the good fight Supergirl greys anatomy MasterChef The flash ettv SEAL Team silicon valley big bang theory español hindi atlanta Legion sono tornato The Walking dead deadpool brooklyn nine nine a quiet place wwe raw avengers infinity war 2018 lucifer etrg star trek discovery español evo the crossing ethd Supergirl s03e19 etmovies bots Brooklyn American crime story deadpool 2 2018 13 Reasons why S02 Krypton arrow español homeland season 7 wwe madam secretary deadpool 2 into the badlands billions bLACK PANTHER elementary ddr Gotham survivor Saturday night live 13 reasons why dtone the 100 Supernatural the big bang theory arrow westworld s02e05 mr robot en español ready player one family guy Timeless 
Warning! Use a VPN When Downloading Torrents!
Your IP Address is 185.89.101.68. Location is Russian Federation
Your Internet Provider is tracking your torrent activity! Hide your IP ADDRESS with a VPN!
We strongly recommend using Trust.Zone VPN to anonymize your torrenting. It's FREE!
Get VPN Now for FREE!
ETTV Recommended TV Shows
The.Flash.2014.S04E23.HDTV.x264-SVA[ettv] torrent
The.100.S05E05.WEBRip.x264-PBS[ettv] torrent
Legion.S02E08.HDTV.x264-SVA[ettv] torrent
MasterChef.Australia.S10E13.HDTV.x264-SPC[ettv] torrent

ETTV Recommended Xvid
Death Wish 2018.HDRip.XViD-ETRG torrent
Gringo.2018.HDRip.XviD.AC3-EVO torrent
Hunting Emma 2018.HDRip.XviD.AC3-EVO torrent
The Strangers Prey at Night 2018 HDRip.XViD-ETRG torrent

ETTV Recommended HD
Jurassic.World.2015.UHD.2160p.Blu-ray.Remux.Multi.DTS-HDMA.5.1(En+Hin+Fr)-DTOne torrent
Jurassic Park 1993 UHD 2160p Blu-ray Remux HDR Multi DTS-X 7.1-DTOne torrent
Jurassic Park II The Lost World 1997 UHD Blu-ray 2160p HDR Remux Multi DTS-X 7.1-DTOne torrent
Red Sparrow 2018 UHD Blu-ray 2160p HDR Remux Multi Atmos 7.1-DTOne torrent

ETTV Recommended Cam
Traffik 2018 HDCAM ENG X264 - SugarTits torrent
Overboard 2018 720p HDCAM X264 HQMic-CPG torrent
Deadpool.2.2018.HDTS.XViD.AC3-ETRG torrent
Avengers Infinity War 2018 NEW HD-TS.XViD.AC3-ETRG torrent

ETTV Recommended Foreign
A.Fantastic.Woman.2017.BluRay.1080p.x264.DTS-HD.MA5.1-DTOne torrent
The Monkey King 3 Kingdom of Women 2018 Blu-ray 1080p x264 Atmos 7.1 -DTOne torrent
Magadheera 2009 Blu-ray 1080p HEVC AAC 5.1-DTOne torrent
Dhammu.2012.Blu-Ray.1080p.HEVC.AAC.5.1-DTOne torrent

Social

Loading...

Download Torrent "Gotham S04E21 One Bad Day 1080p AMZN WEBRip x265 AAC 5.1 D0ct0rLew[UTR]"

IMDB Details
Description:

N/A

Genre:

N/A

Download Torrent (Magnet)
Download Torrent (File)
Seeds: 35
Leechers: 11
Completed: 296 
Last Checked: 12-05-2018 06:52:45


Details
Title:Gotham S04E21 One Bad Day 1080p AMZN WEBRip x265 AAC 5.1 D0ct0rLew[UTR]
Description:





Media Information

Unique ID                                : 220043389079882007192509196018218635553 (0xA58AD0B18F2CFFDAB517ED1CD6571121)
Complete name                            : Gotham S04E21 One Bad Day 1080p AMZN WEBRip  x265 AAC 5.1  D0ct0rLew[UTR].mkv
Format                                   : Matroska
Format version                           : Version 4 / Version 2
File size                                : 1.08 GiB
Duration                                 : 43 min 55 s
Overall bit rate                         : 3 526 kb/s
Encoded date                             : UTC 2018-05-12 03:10:29
Writing application                      : mkvmerge v17.0.0 ('Be Ur Friend') 64-bit
Writing library                          : libebml v1.3.5 + libmatroska v1.4.8

Video
ID                                       : 3
Format                                   : HEVC
Format/Info                              : High Efficiency Video Coding
Format profile                           : Main [email protected]@Main
Codec ID                                 : V_MPEGH/ISO/HEVC
Duration                                 : 43 min 55 s
Bit rate                                 : 3 076 kb/s
Width                                    : 1 920 pixels
Height                                   : 1 080 pixels
Display aspect ratio                     : 16:9
Frame rate mode                          : Constant
Frame rate                               : 23.976 (24000/1001) FPS
Color space                              : YUV
Chroma subsampling                       : 4:2:0
Bit depth                                : 10 bits
Bits/(Pixel*Frame)                       : 0.062
Stream size                              : 966 MiB (87%)
Writing library                          : x265 2.7+348-0968a46d6ba4:[Windows][MSVC 1914][64 bit] 10bit
Encoding settings                        : cpuid=1049583 / frame-threads=3 / numa-pools=8 / wpp / no-pmode / no-pme / no-psnr / no-ssim / log-level=2 / input-csp=1 / input-res=1920x1080 / interlace=0 / total-frames=63189 / level-idc=0 / high-tier=1 / uhd-bd=0 / ref=4 / no-allow-non-conformance / no-repeat-headers / annexb / no-aud / no-hrd / info / hash=0 / no-temporal-layers / open-gop / min-keyint=23 / keyint=250 / gop-lookahead=0 / bframes=8 / b-adapt=2 / b-pyramid / bframe-bias=0 / rc-lookahead=90 / lookahead-slices=4 / scenecut=40 / radl=0 / no-intra-refresh / ctu=64 / min-cu-size=8 / rect / no-amp / max-tu-size=32 / tu-inter-depth=1 / tu-intra-depth=1 / limit-tu=0 / rdoq-level=2 / dynamic-rd=0.00 / no-ssim-rd / signhide / no-tskip / nr-intra=0 / nr-inter=0 / no-constrained-intra / no-strong-intra-smoothing / max-merge=3 / limit-refs=3 / limit-modes / me=3 / subme=3 / merange=57 / temporal-mvp / weightp / no-weightb / no-analyze-src-pics / deblock=3:3 / no-sao / no-sao-non-deblock / rd=4 / no-early-skip / no-rskip / no-fast-intra / no-tskip-fast / no-cu-lossless / no-b-intra / no-splitrd-skip / rdpenalty=0 / psy-rd=1.10 / psy-rdoq=1.00 / no-rd-refine / no-lossless / cbqpoffs=3 / crqpoffs=3 / rc=crf / crf=19.5 / qcomp=0.60 / qpstep=4 / stats-write=0 / stats-read=0 / ipratio=1.40 / pbratio=1.30 / aq-mode=3 / aq-strength=0.90 / cutree / zone-count=0 / no-strict-cbr / qg-size=32 / no-rc-grain / qpmax=69 / qpmin=0 / no-const-vbv / sar=0 / overscan=0 / videoformat=5 / range=0 / colorprim=2 / transfer=2 / colormatrix=2 / chromaloc=0 / display-window=0 / max-cll=0,0 / min-luma=0 / max-luma=1023 / log2-max-poc-lsb=8 / vui-timing-info / vui-hrd-info / slices=1 / no-opt-qp-pps / no-opt-ref-list-length-pps / no-multi-pass-opt-rps / scenecut-bias=0.05 / no-opt-cu-delta-qp / no-aq-motion / no-hdr / no-hdr-opt / no-dhdr10-opt / no-idr-recovery-sei / analysis-reuse-level=5 / scale-factor=0 / refine-intra=0 / refine-inter=0 / refine-mv=0 / no-limit-sao / ctu-info=0 / no-lowpass-dct / refine-mv-type=0 / copy-pic=1 / max-ausize-factor=1.0 / no-dynamic-refine / no-single-sei
Default                                  : Yes
Forced                                   : No

Audio
ID                                       : 2
Format                                   : AAC
Format/Info                              : Advanced Audio Codec
Format profile                           : LC
Codec ID                                 : A_AAC-2
Duration                                 : 43 min 55 s
Bit rate                                 : 448 kb/s
Channel(s)                               : 6 channels
Channel positions                        : Front: L C R, Side: L R, LFE
Sampling rate                            : 48.0 kHz
Frame rate                               : 46.875 FPS (1024 SPF)
Compression mode                         : Lossy
Delay relative to video                  : 9 ms
Stream size                              : 141 MiB (13%)
Default                                  : Yes
Forced                                   : No

Text
ID                                       : 1
Format                                   : UTF-8
Codec ID                                 : S_TEXT/UTF8
Codec ID/Info                            : UTF-8 Plain Text
Duration                                 : 43 min 46 s
Bit rate                                 : 81 b/s
Count of elements                        : 977
Stream size                              : 26.3 KiB (0%)
Default                                  : Yes
Forced                                   : No

We have no issue with individuals posting or re-uploading our torrents on a platform we aren't on. However, if this is something you'd like to do, please do so in a 'as-is' format. We ask that you do not create a new torrent, include all descriptions you see above including the UTR logo, tags, notes and screenshots. If you'd like to become a permanent poster on a website we don't post to, feel free to get in contact with a UniTeam member.



Category:TV > HEVC/x265
Lang:English  English
Total Size:1.16 GB
Info Hash:f0c42b172f62acf096ea224d9d030d1820cceac3
Added By:UTR
Date Added:12-05-2018 06:52:41

Files

File List: 
 File Size
Gotham S04E21 One Bad Day 1080p AMZN WEBRip x265 AAC 5.1 D0ct0rLew[UTR].mkv1.16 GB



Loading...
Comments

There are currently no comments. Be the first one to write something !

Disclaimer: None of the files shown here are actually hosted or transmitted by this server. The links are provided solely by this site's users. The site moderation is also a service provided by the site's users. The administrator of this site (ettv.tv) cannot be held responsible for what its users post, or any other actions of its users. You may not use this site to distribute or download any material when you do not have the legal rights to do so. It is your own responsibility to adhere to these terms.