ettv deception into the badlands instinct brooklyn nine nine fgt ncis Greys Anatomy brooklyn the blacklist Gotham silicon valley star trek discovery español Lost in Space 2018 s01e06 fear the walking dead the good doctor agents of shield Westworld killing eve ash vs evil dead big bang theory español the terror big bang theory READY PLAYER ONE arrow ethd young sheldon Fantastic 4 Roger Corman The Walking Dead homeland arrow español PERVERSE SEX The Good Fight ddr BITCHES IN UNIFORM hindi madam secretary suits vikings the expanse supernatural barry Lost in Space 2018 s01e05 red sparrow the big bang theory lethal weapon etrg billions dtone Westworld S02E01 homeland s07e11 blindspot Black Panther 2018 Lucifer Dtone All the Money in the World lost in space Silicon Valley S05E05 0 last week tonight ita the flash family guy etmovies westworld S02 evo Legion survivor walking dead black panther timeless The americans 
Warning! Use a VPN When Downloading Torrents!
Your IP Address is 185.251.71.232. Location is
Your Internet Provider is tracking your torrent activity! Hide your IP ADDRESS with a VPN!
We strongly recommend using Trust.Zone VPN to anonymize your torrenting. It's FREE!
Get VPN Now for FREE!
ETTV Recommended TV Shows
The.Crossing.S01E04.HDTV.x264-KILLERS[ettv]
Supergirl.S03E15.HDTV.x264-SVA[ettv]
iZombie.S04E08.HDTV.x264-SVA[ettv]
American.Dad.S14E11.WEBRip.x264-TBS[ettv]

ETTV Recommended Xvid
Last Seen in Idaho.2018.HDRip.XViD-ETRG
Batman.Ninja.2018.HDRip.XviD.AC3-EVO
Where the Skin Lies 2017.HDRip.XviD.AC3-EVO[EtMovies]
Fifty Shades Freed.2018.UNRATED.HDRip.XviD.AC3-EVO[EtMovies]

ETTV Recommended HD
Delta.Force.2.The.Colombian.Connection.1990.1080p.Blu-ray.x264.DTS-HDMA.2.0-DTOne
The.Debt.Collector.2018.Multi.1080p.Blu-ray.x264.DTS.-DTOne
Peter Rabbit 2018 BluRay 1080p AC3 x264-3Li
Fifty.Shades.Freed.2018.UNRATED.1080p.WEB-DL.X264.AC3-EVO[EtHD]

ETTV Recommended Cam
Rampage 2018 720p NEW HDCAM X264 HQMic-CPG
The Strangers Prey at Night.2018.HD-TS.XViD.AC3-ETRG
Acrimony.2018.HDCAM.x264-DiRG[TGx]
Tomb Raider 2018 720p HD-TC NEW X264-CPG

ETTV Recommended Foreign
Come.Un.Gatto.In.Tangenziale.(2017).SatRip.720p.H264.ita.Ac3-2.0.BaMax71.MIRCrew
Special ID (2013) 720p BluRay x264 Eng Subs [Multi Audio] [Hindi DD 2.0 - English 2.0 - Chinese 2.0] Exclusive By -=!Dr.STAR!=-
[18+] Being Flynn (2012) x264 720p UNRATED BluRay Eng Subs {Dual Audio} [Hindi ORG DD 2.0 + English 2.0] Exclusive By DREDD
The Greatest Showman (2017) 720p BluRay x264 [Dual-Audio][Hindi 5.1 - English] ESubs - Downloadhub

Social

Loading...

Download Torrent "Return Of The Living Dead Part II (Original Theatrical Score) avi"

IMDB Details
Description:

N/A

Genre:

N/A

Download Torrent (Magnet)
Download Torrent (File)
Seeds: 4
Leechers: 0
Completed: 2,166 
Last Checked: 16-04-2018 00:09:42


Loading...
Details
Title:Return Of The Living Dead Part II (Original Theatrical Score) avi
Description:

fiveofseven Classic Encodes Presents...

Return Of The Living Dead Part II (Original Theatrical Score) avi



PLOT - Curious kids unearth the barrels that helped revive the dead 
of the first film, which proves the second time's an undead charm.






Just an old torrent being brought here.


Encoder: fiveofseven
Source: DVD
Rating: R
Genre: Horror, Comedy
Subtitles: None

General
Complete name                            : Return Of The Living Dead Part II Theatrical Score.avi
Format                                   : AVI
Format/Info                              : Audio Video Interleave
Format profile                           : OpenDML
File size                                : 1.37 GiB
Duration                                 : 1h 29mn
Overall bit rate                         : 2 189 Kbps
Writing application                      : Lavf51.12.1

Video
ID                                       : 0
Format                                   : AVC
Format/Info                              : Advanced Video Codec
Format profile                           : [email protected]
Format settings, CABAC                   : No
Format settings, ReFrames                : 1 frame
Format settings, GOP                     : M=1, N=12
Codec ID                                 : H264
Duration                                 : 1h 29mn
Bit rate                                 : 2 047 Kbps
Width                                    : 720 pixels
Height                                   : 400 pixels
Display aspect ratio                     : 16:9
Frame rate mode                          : Variable
Frame rate                               : 23.976 fps
Color space                              : YUV
Chroma subsampling                       : 4:2:0
Bit depth                                : 8 bits
Scan type                                : Progressive
Bits/(Pixel*Frame)                       : 0.296
Stream size                              : 1.28 GiB (94%)

Audio
ID                                       : 1
Format                                   : MPEG Audio
Format version                           : Version 1
Format profile                           : Layer 3
Mode                                     : Joint stereo
Codec ID                                 : 55
Codec ID/Hint                            : MP3
Duration                                 : 1h 29mn
Bit rate mode                            : Constant
Bit rate                                 : 128 Kbps
Channel count                            : 2 channels
Sampling rate                            : 44.1 KHz
Compression mode                         : Lossy
Stream size                              : 81.8 MiB (6%)
Alignment                                : Aligned on interleaves
Interleave, duration                     : 26 ms (0.63 video frame)
Interleave, preload duration             : 26 ms
Writing library                          : LAME3.97




Category:Movies > XviD
Lang:English  English
Total Size:1.47 GB
Info Hash:7a8827c22f10ca1d5c2e6daf3fc445647eac66d0
Added By:fiveofseven
Date Added:16-04-2018 00:09:37

  

Files

File List: 
 File Size
Return Of The Living Dead Part II Theatrical Score.avi1.47 GB



Loading...
Comments

There are currently no comments. Be the first one to write something !

Disclaimer: None of the files shown here are actually hosted or transmitted by this server. The links are provided solely by this site's users. The site moderation is also a service provided by the site's users. The administrator of this site (ettv.tv) cannot be held responsible for what its users post, or any other actions of its users. You may not use this site to distribute or download any material when you do not have the legal rights to do so. It is your own responsibility to adhere to these terms.