scorpion PERVERSE SEX unreal Lethal Weapon the 100 Flash etrg batman ninja silicon valley black lightning evo The Crossing chicago pd Westworld the expanse supernatural star trek discovery español Black Panther 2018 ncis WWE BITCHES IN UNIFORM The TError suits New Girl the 100 s05e01 the flash s04e19 the big bang theory Legion s02e04 brooklyn nine nine gotham lucifer ethd shadowhunters Seal Team etmovies arrow español Hindi krypton fgt into the badlands big bang theory español arrow the handmaid s tale ddr westworld s02e01 the voice big bang theory chicago med dtone billions homeland the handmaids tale blindspot the blacklist the walking dead  Young Sheldon black panther ita The Good Doctor black panther supergirl The Flash westworld s02 deception fear the walking dead Legion hostiles ettv genius roseanne ita Izombie 
Warning! Use a VPN When Downloading Torrents!
Your IP Address is 185.251.14.55. Location is
Your Internet Provider is tracking your torrent activity! Hide your IP ADDRESS with a VPN!
We strongly recommend using Trust.Zone VPN to anonymize your torrenting. It's FREE!
Get VPN Now for FREE!
ETTV Recommended TV Shows
Krypton.S01E06.PROPER.HDTV.x264-KILLERS[ettv]
The.Expanse.S03E03.HDTV.x264-SVA[ettv]
The.Americans.2013.S06E05.HDTV.x264-SVA[ettv]
The.Originals.S05E02.WEBRip.x264-PBS[ettv]

ETTV Recommended Xvid
Anna.2017.UNCUT.BRRip.XViD-ETRG
Fifty.Shades.Freed.2018.UNRATED.BRRip.XViD-ETRG
The Villainess.2017.DVDRip.XViD.AC3-ETRG
I Thought You Were a Nice Man.2018.HDRip.XviD.AC3-EVO

ETTV Recommended HD
Muse.2017.Multi.1080p.Blu-ray.x264.DTS-HDMA.5.1-DTOne
Winchester.2018.1080p.Blu-ray.x264.DTS-HD.MA.5.1-DTOne
Fifty.Shades.Freed.2018.UNRATED.720p.BRRip.x264.AAC-ETRG
The.Crucifixion.2017.1080p.Blu-Ray.x264.DTS-HDMA.5.1-DTOne

ETTV Recommended Cam
The Strangers Prey at Night.2018.HD-TS.XViD.AC3-ETRG
Tomb Raider 2018 720p HD-TC NEW X264-CPG
Truth or Dare 2018 HD-TS X264-Mr.Hive
Black Panther 2018 720P HDTC-X264-ESUBS-AC3-Cr@zyTribal

ETTV Recommended Foreign
The Greatest Showman (2017) 720p BluRay x264 [Dual-Audio][Hindi 5.1 - English] ESubs - Downloadhub
Shubh Mangal Saavdhan (2017) 1-3 DVDRip - x264 AC3 5.1 - ESub - DTOne
Psychokinesis.2018.HDRip.XviD.AC3-EVO[EtMovies]
Shab.2017.720p.DvDRip.HEVC.AAC.5.1-DTOne

Social

Loading...

Download Torrent "Tokyo Ghoul-re - 01 (1080p x265 HEVC 10bit AAC 2.0 DUAL-AUDIO BugsFunny) [U..."

IMDB Details
Description:

N/A

Genre:

N/A

Download Torrent (Magnet)
Download Torrent (File)
Seeds: 47
Leechers: 14
Completed: 165 
Last Checked: 06-04-2018 14:08:28


Details
Title:Tokyo Ghoul-re - 01 (1080p x265 HEVC 10bit AAC 2.0 DUAL-AUDIO BugsFunny) [U...
Description:






Media Information
General
Format                                   : Matroska
Format version                           : Version 4 / Version 2
File size                                : 349 MiB
Duration                                 : 24 min 10 s
Overall bit rate                         : 2 019 kb/s
Encoded date                             : UTC 2018-04-06 11:50:07
Writing application                      : mkvmerge v17.0.0 ('Be Ur Friend') 64-bit
Writing library                          : libebml v1.3.5 + libmatroska v1.4.8
Writing frontend                         : StaxRip v1.7.0.5

Video
ID                                       : 1
Format                                   : HEVC
Format/Info                              : High Efficiency Video Coding
Format profile                           : Main [email protected]@Main
Codec ID                                 : V_MPEGH/ISO/HEVC
Duration                                 : 24 min 10 s
Bit rate                                 : 1 743 kb/s
Width                                    : 1 920 pixels
Height                                   : 1 080 pixels
Display aspect ratio                     : 16:9
Frame rate mode                          : Constant
Frame rate                               : 23.976 (24000/1001) FPS
Color space                              : YUV
Chroma subsampling                       : 4:2:0
Bit depth                                : 10 bits
Bits/(Pixel*Frame)                       : 0.035
Stream size                              : 301 MiB (86%)
Writing library                          : x265 2.7+17-2e370d98c806:[Windows][GCC 8.0.1][64 bit] 10bit
Encoding settings                        : cpuid=1173503 / frame-threads=3 / numa-pools=8 / wpp / no-pmode / no-pme / no-psnr / no-ssim / log-level=2 / input-csp=1 / input-res=1920x1080 / interlace=0 / total-frames=34766 / level-idc=0 / high-tier=1 / uhd-bd=0 / ref=4 / no-allow-non-conformance / no-repeat-headers / annexb / no-aud / no-hrd / info / hash=0 / no-temporal-layers / open-gop / min-keyint=23 / keyint=250 / gop-lookahead=0 / bframes=4 / b-adapt=2 / b-pyramid / bframe-bias=0 / rc-lookahead=30 / lookahead-slices=4 / scenecut=40 / radl=0 / no-intra-refresh / ctu=32 / min-cu-size=8 / rect / no-amp / max-tu-size=16 / tu-inter-depth=2 / tu-intra-depth=2 / limit-tu=0 / rdoq-level=2 / dynamic-rd=0.00 / no-ssim-rd / signhide / tskip / nr-intra=0 / nr-inter=0 / no-constrained-intra / strong-intra-smoothing / max-merge=3 / limit-refs=3 / limit-modes / me=3 / subme=5 / merange=92 / temporal-mvp / weightp / no-weightb / no-analyze-src-pics / deblock=2:2 / sao / no-sao-non-deblock / rd=4 / no-early-skip / rskip / no-fast-intra / tskip-fast / no-cu-lossless / no-b-intra / no-splitrd-skip / rdpenalty=0 / psy-rd=2.00 / psy-rdoq=5.00 / no-rd-refine / no-lossless / cbqpoffs=0 / crqpoffs=0 / rc=crf / crf=22.0 / qcomp=0.60 / qpstep=4 / stats-write=0 / stats-read=0 / ipratio=1.40 / pbratio=1.30 / aq-mode=3 / aq-strength=1.00 / cutree / zone-count=0 / no-strict-cbr / qg-size=32 / no-rc-grain / qpmax=69 / qpmin=0 / no-const-vbv / sar=0 / overscan=0 / videoformat=5 / range=0 / colorprim=2 / transfer=2 / colormatrix=2 / chromaloc=0 / display-window=0 / max-cll=0,0 / min-luma=0 / max-luma=1023 / log2-max-poc-lsb=8 / vui-timing-info / vui-hrd-info / slices=1 / no-opt-qp-pps / no-opt-ref-list-length-pps / no-multi-pass-opt-rps / scenecut-bias=0.05 / no-opt-cu-delta-qp / aq-motion / no-hdr / no-hdr-opt / no-dhdr10-opt / no-idr-recovery-sei / analysis-reuse-level=5 / scale-factor=0 / refine-intra=0 / refine-inter=0 / refine-mv=0 / no-limit-sao / ctu-info=0 / no-lowpass-dct / refine-mv-type=0 / copy-pic=1 / max-ausize-factor=1.0 / no-dynamic-refine
Default                                  : Yes
Forced                                   : No

Audio #1
ID                                       : 3
Format                                   : AAC
Format/Info                              : Advanced Audio Codec
Format profile                           : LC
Codec ID                                 : A_AAC
Duration                                 : 24 min 10 s
Bit rate                                 : 117 kb/s
Channel(s)                               : 2 channels
Channel positions                        : Front: L R
Sampling rate                            : 48.0 kHz
Frame rate                               : 46.875 FPS (1024 spf)
Compression mode                         : Lossy
Stream size                              : 20.2 MiB (6%)
Default                                  : No
Forced                                   : No

Audio #2
ID                                       : 4
Format                                   : AAC
Format/Info                              : Advanced Audio Codec
Format profile                           : LC
Codec ID                                 : A_AAC
Duration                                 : 24 min 10 s
Bit rate                                 : 155 kb/s
Channel(s)                               : 2 channels
Channel positions                        : Front: L R
Sampling rate                            : 48.0 kHz
Frame rate                               : 46.875 FPS (1024 spf)
Compression mode                         : Lossy
Delay relative to video                  : 20 ms
Stream size                              : 26.9 MiB (8%)
Default                                  : Yes
Forced                                   : No

Subtitle
ID                                       : 2
Format                                   : ASS
Codec ID                                 : S_TEXT/ASS
Codec ID/Info                            : Advanced Sub Station Alpha
Duration                                 : 24 min 2 s
Bit rate                                 : 114 b/s
Count of elements                        : 346
Compression mode                         : Lossless
Stream size                              : 20.1 KiB (0%)
Default                                  : No
Forced                                   : No

Source Information
Release: [Erai-raws] Tokyo Ghoul-re - 01 [1080p].mkv (1.34 GBs), [Golumpa] Tokyo Ghoul re - 01 (Tokyo Ghoul S3) [FuniDub 1080p x264 AAC] [61B78F3A] (1.35GBs) (English audio source)



Note From UTR We have no issue with individuals posting or re-uploading our torrents on a platform we aren't on. However, if this is something you'd like to do, please do so in a 'as-is' format. We ask that you do not create a new torrent, include all descriptions you see above including the UTR logo, tags, notes and screenshots. If you'd like to become a permanent poster on a website we don't post to, feel free to get in contact with a UniTeam member.

If possible please donate: BTC 1QA5fum5AyXvWzdVCkQzUNvw3Ef15fHRaR


Category:Anime > Others
Lang:Unknown/NA
Total Size:366 MB
Info Hash:ba3cd75b073a4c14eb6282528efbd2791aa7d673
Added By:UTR
Date Added:06-04-2018 14:08:21

Files

File List: 
 File Size
Tokyo Ghoul-re - 01 (1080p x265 HEVC 10bit AAC 2.0 DUAL-AUDIO BugsFunny) [UTR].mkv366 MB



Loading...
Comments

There are currently no comments. Be the first one to write something !

Disclaimer: None of the files shown here are actually hosted or transmitted by this server. The links are provided solely by this site's users. The site moderation is also a service provided by the site's users. The administrator of this site (ettv.tv) cannot be held responsible for what its users post, or any other actions of its users. You may not use this site to distribute or download any material when you do not have the legal rights to do so. It is your own responsibility to adhere to these terms.